<?xml version="1.0" encoding="UTF-8" standalone="no"?>
<!-- Creator: CorelDRAW X6 -->

<svg
   xmlns:dc="http://purl.org/dc/elements/1.1/"
   xmlns:cc="http://creativecommons.org/ns#"
   xmlns:rdf="http://www.w3.org/1999/02/22-rdf-syntax-ns#"
   xmlns:svg="http://www.w3.org/2000/svg"
   xmlns="http://www.w3.org/2000/svg"
   xmlns:sodipodi="http://sodipodi.sourceforge.net/DTD/sodipodi-0.dtd"
   xmlns:inkscape="http://www.inkscape.org/namespaces/inkscape"
   xml:space="preserve"
   width="500px"
   height="369px"
   version="1.1"
   style="shape-rendering:geometricPrecision; text-rendering:geometricPrecision; image-rendering:optimizeQuality; fill-rule:evenodd; clip-rule:evenodd"
   viewBox="0 0 972128 717601"
   id="svg2"
   inkscape:version="0.48.4 r9939"
   sodipodi:docname="uvod-rozcestnik-text.svg"><metadata
   id="metadata214"><rdf:RDF><cc:Work
       rdf:about=""><dc:format>image/svg+xml</dc:format><dc:type
         rdf:resource="http://purl.org/dc/dcmitype/StillImage" /></cc:Work></rdf:RDF></metadata><sodipodi:namedview
   pagecolor="#ffffff"
   bordercolor="#666666"
   borderopacity="1"
   objecttolerance="10"
   gridtolerance="10"
   guidetolerance="10"
   inkscape:pageopacity="0"
   inkscape:pageshadow="2"
   inkscape:window-width="1920"
   inkscape:window-height="1018"
   id="namedview212"
   showgrid="false"
   inkscape:zoom="1.8089669"
   inkscape:cx="198.52675"
   inkscape:cy="206.47861"
   inkscape:window-x="-8"
   inkscape:window-y="-8"
   inkscape:window-maximized="1"
   inkscape:current-layer="svg2" />
 <defs
   id="defs4">
  <font
   id="FontID0"
   horiz-adv-x="722"
   font-variant="normal"
   style="fill-rule:nonzero"
   font-style="normal"
   font-weight="700">
	<font-face
   font-family="Arial"
   id="font-face7">
	</font-face>
   <missing-glyph
   id="missing-glyph9"><path
     d="M0 0z"
     id="path11" /></missing-glyph>
   <glyph
   unicode="č"
   horiz-adv-x="556"
   id="glyph13"><path
     d="M524 365.008l-134.992 -24c-4.50394,26.8189 -14.8346,46.9921 -31.0079,60.6614 -16.1732,13.4961 -36.9921,20.3307 -62.6614,20.3307 -34.1732,0 -61.5118,-11.8268 -81.8425,-35.4961 -20.3307,-23.6693 -30.4882,-63.1654 -30.4882,-118.677 0,-61.6535 10.3307,-105.165 30.9921,-130.661 20.6614,-25.4961 48.3307,-38.1575 83.0079,-38.1575 26,0 47.3228,7.49606 63.8268,22.3307 16.6614,14.8346 28.3307,40.3307 35.1654,76.6614l135.008 -22.9921c-14,-62 -40.8346,-108.835 -80.5039,-140.504 -39.6693,-31.6693 -92.8346,-47.5118 -159.669,-47.5118 -75.6693,0 -136.173,24.0157 -181.165,71.8425 -45.1654,48 -67.6693,114.331 -67.6693,199.165 0,85.8268 22.6614,152.504 67.8268,200.331 45.1811,47.8425 106.346,71.6693 183.512,71.6693 62.9921,0 113.165,-13.6693 150.488,-40.8346 37.1811,-27.1654 63.8425,-68.5039 80.1732,-124.157zm-398.992 364.992l110.992 0 52.5039 -72.9921 56.5039 72.9921 110 0 -100.835 -144 -126.835 0 -102.331 144z"
     id="path15" /></glyph>
   <glyph
   unicode="c"
   horiz-adv-x="556"
   id="glyph17"><path
     d="M524 365.008l-134.992 -24c-4.50394,26.8189 -14.8346,46.9921 -31.0079,60.6614 -16.1732,13.4961 -36.9921,20.3307 -62.6614,20.3307 -34.1732,0 -61.5118,-11.8268 -81.8425,-35.4961 -20.3307,-23.6693 -30.4882,-63.1654 -30.4882,-118.677 0,-61.6535 10.3307,-105.165 30.9921,-130.661 20.6614,-25.4961 48.3307,-38.1575 83.0079,-38.1575 26,0 47.3228,7.49606 63.8268,22.3307 16.6614,14.8346 28.3307,40.3307 35.1654,76.6614l135.008 -22.9921c-14,-62 -40.8346,-108.835 -80.5039,-140.504 -39.6693,-31.6693 -92.8346,-47.5118 -159.669,-47.5118 -75.6693,0 -136.173,24.0157 -181.165,71.8425 -45.1654,48 -67.6693,114.331 -67.6693,199.165 0,85.8268 22.6614,152.504 67.8268,200.331 45.1811,47.8425 106.346,71.6693 183.512,71.6693 62.9921,0 113.165,-13.6693 150.488,-40.8346 37.1811,-27.1654 63.8425,-68.5039 80.1732,-124.157z"
     id="path19" /></glyph>
   <glyph
   unicode="t"
   horiz-adv-x="333"
   id="glyph21"><path
     d="M309.008 519.008l0 -109.008 -94 0 0 -210.173c0,-42.6614 0.818898,-67.4961 2.66142,-74.4882 1.82677,-7.00787 5.82677,-12.8346 12.3307,-17.5118 6.33071,-4.48819 14,-6.8189 23.1654,-6.8189 12.8346,0 31.1654,4.33071 55.3386,13.1654l11.4961 -106.677c-31.8268,-13.6693 -67.8268,-20.5039 -108.173,-20.5039 -24.6614,0 -46.8189,4.17323 -66.6614,12.5039 -19.8268,8.33071 -34.3307,19.1654 -43.4961,32.3307 -9.33858,13.3386 -15.6693,31.1811 -19.3386,53.8425 -2.83465,16 -4.33071,48.3307 -4.33071,97.1654l0 227.165 -62.9921 0 0 109.008 62.9921 0 0 102.992 137.008 81.0079 0 -184 94 0z"
     id="path23" /></glyph>
   <glyph
   unicode="R"
   horiz-adv-x="722"
   id="glyph25"><path
     d="M73.0079 0l0 716 304.488 0c76.5039,0 132.173,-6.50394 166.835,-19.3386 34.8346,-12.8346 62.5039,-35.6535 83.3386,-68.4882 20.8346,-33.0079 31.3386,-70.5039 31.3386,-112.835 0,-53.8425 -15.6693,-98.1732 -47.1811,-133.165 -31.4961,-35.0079 -78.4882,-57.0079 -141.165,-66.1732 31.1654,-18.1732 56.8346,-38.1732 77.0079,-60 20.3307,-21.8268 47.6693,-60.6614 82,-116.331l87.3386 -139.669 -172.835 0 -103.669 156.331c-37.1654,55.4961 -62.6772,90.5039 -76.5039,105.008 -13.6693,14.3307 -28.1732,24.3307 -43.4961,29.6693 -15.4961,5.32283 -39.8425,8 -73.1654,8l-29.3386 0 0 -299.008 -144.992 0zm144.992 413.008l107.008 0c69.3228,0 112.488,2.99213 129.827,8.8189 17.1654,5.84252 30.8346,16 40.5039,30.3465 9.82677,14.3307 14.6614,32.3307 14.6614,53.8268 0,24.1732 -6.50394,43.4961 -19.3386,58.5039 -12.8346,14.8346 -30.9921,24.1575 -54.3307,28 -11.8268,1.66929 -46.9921,2.50394 -105.496,2.50394l-112.835 0 0 -182z"
     id="path27" /></glyph>
   <glyph
   unicode="Ú"
   horiz-adv-x="722"
   id="glyph29"><path
     d="M73.0079 716l144.992 0 0 -388c0,-61.6693 1.82677,-101.496 5.33858,-119.669 6.15748,-29.3228 20.6614,-52.9921 43.6693,-70.6614 23.1654,-17.8425 54.6614,-26.6614 94.6614,-26.6614 40.5039,0 71.1654,8.33071 91.8268,25.1654 20.6772,16.8346 33.0079,37.3228 37.1654,61.8268 4.17323,24.5039 6.34646,65.0079 6.34646,121.669l0 396.331 144.992 0 0 -376.504c0,-86 -3.82677,-146.835 -11.6693,-182.331 -7.82677,-35.4961 -22.1575,-65.4961 -43.1654,-90 -20.8346,-24.5039 -48.8346,-43.8268 -83.8268,-58.3307 -35.1654,-14.5039 -80.8346,-21.8425 -137.339,-21.8425 -68.1732,0 -119.827,7.84252 -154.992,23.6693 -35.1811,15.8425 -63.0079,36.3465 -83.5118,61.6693 -20.4882,25.3386 -33.8268,51.6693 -40.3307,79.4961 -9.49606,41.0079 -14.1575,101.669 -14.1575,181.843l0 382.331zm202.992 65.0079l68 146 153.008 0 -135.008 -146 -86 0z"
     id="path31" /></glyph>
   <glyph
   unicode="ě"
   horiz-adv-x="556"
   id="glyph33"><path
     d="M372 164l137.008 -22.9921c-17.5118,-50.1732 -45.3386,-88.3465 -83.1811,-114.677 -38,-26.1575 -85.4961,-39.3386 -142.331,-39.3386 -90.1575,0 -156.992,29.5118 -200.157,88.5039 -34.1732,47.3386 -51.3386,107.008 -51.3386,179.165 0,86 22.5039,153.512 67.3386,202.173 44.8346,48.8346 101.669,73.1654 170.331,73.1654 76.9921,0 137.827,-25.4961 182.504,-76.5039 44.4882,-50.9921 65.8268,-129.165 63.8268,-234.488l-342.992 0c0.992126,-40.6772 12,-72.3465 33.1654,-95.0079 20.9921,-22.6614 47.3228,-34 78.6614,-34 21.4961,0 39.4961,5.82677 54,17.4961 14.6614,11.6693 25.6693,30.5039 33.1654,56.5039zm8 139.008c-0.992126,39.8268 -11.1654,70.1575 -30.6614,90.8189 -19.5118,20.8346 -43.1654,31.1811 -71.1654,31.1811 -29.8425,0 -54.5039,-11.0079 -74,-32.8346 -19.5118,-21.8425 -29.0079,-51.6693 -28.6772,-89.1654l204.504 0zm-264 426.992l111.008 0 52.4882 -72.9921 56.5039 72.9921 110 0 -100.835 -144 -126.835 0 -102.331 144z"
     id="path35" /></glyph>
   <glyph
   unicode="n"
   horiz-adv-x="610"
   id="glyph37"><path
     d="M544 0l-136.992 0 0 264.504c0,56 -3.00787,92.1575 -8.83465,108.504 -6,16.4882 -15.5118,29.1654 -28.8346,38.3307 -13.3386,9.16535 -29.3386,13.6693 -48,13.6693 -24,0 -45.5118,-6.50394 -64.5039,-19.5118 -19.1654,-12.9921 -32.1732,-30.3307 -39.1654,-51.6693 -7.16535,-21.4961 -10.6614,-61.1654 -10.6614,-119.165l0 -234.661 -137.008 0 0 519.008 127.008 0 0 -76.1732c45.4961,58.1732 102.661,87.1654 171.827,87.1654 30.3307,0 58.1732,-5.49606 83.3386,-16.3307 25.3228,-11.0079 44.3307,-24.8346 57.1654,-41.6693 12.9921,-16.9921 22,-36.1732 26.9921,-57.6693 5.16535,-21.4961 7.66929,-52.1575 7.66929,-92.1575l0 -322.173z"
     id="path39" /></glyph>
   <glyph
   unicode="k"
   horiz-adv-x="556"
   id="glyph41"><path
     d="M67.0079 0l0 716 136.992 0 0 -379.827 160.504 182.835 168.992 0 -176.992 -189.669 190 -329.339 -148 0 -131.008 234.173 -63.4961 -68 0 -166.173 -136.992 0z"
     id="path43" /></glyph>
   <glyph
   unicode="ř"
   horiz-adv-x="389"
   id="glyph45"><path
     d="M203.008 0l-137.008 0 0 519.008 127.008 0 0 -73.6693c21.8268,34.8346 41.4961,57.6693 58.9921,68.4882 17.4961,10.8346 37.3386,16.1732 59.4961,16.1732 31.3386,0 61.5118,-8.66142 90.5039,-25.8268l-42.5039 -119.669c-23.1654,14.9921 -44.6614,22.5039 -64.4882,22.5039 -19.3386,0 -35.6693,-5.33858 -49.0079,-15.8425 -13.3386,-10.6614 -23.8268,-29.6693 -31.4961,-57.3386 -7.66929,-27.6535 -11.4961,-85.6535 -11.4961,-173.827l0 -160zm-144 730l110.992 0 52.5039 -72.9921 56.5039 72.9921 110 0 -100.835 -144 -126.835 0 -102.331 144z"
     id="path47" /></glyph>
   <glyph
   unicode="y"
   horiz-adv-x="556"
   id="glyph49"><path
     d="M6 519.008l146 0 124.504 -368.173 121.496 368.173 142 0 -182.992 -499.512 -33.0079 -90.1575c-12.1732,-30.1732 -23.6693,-53.1654 -34.6614,-69.1654 -10.8346,-15.8425 -23.5118,-28.8346 -37.6693,-38.6772 -14.1732,-10 -31.6693,-17.6693 -52.5039,-23.1654 -20.6614,-5.49606 -44.1575,-8.33071 -70.3307,-8.33071 -26.3307,0 -52.3307,2.83465 -77.8268,8.33071l-12 107.008c21.4961,-4.17323 40.9921,-6.34646 58.3307,-6.34646 32,0 55.6693,9.33858 70.9921,28.1732 15.3386,18.8346 27.1654,42.8346 35.3386,71.8268l-197.669 520.016z"
     id="path51" /></glyph>
   <glyph
   unicode="í"
   horiz-adv-x="277"
   id="glyph53"><path
     d="M72 0l0 519.008 137.008 0 0 -519.008 -137.008 0zm-22.9921 586l68 146 152.992 0 -134.992 -146 -86 0z"
     id="path55" /></glyph>
   <glyph
   unicode="e"
   horiz-adv-x="556"
   id="glyph57"><path
     d="M372 164l137.008 -22.9921c-17.5118,-50.1732 -45.3386,-88.3465 -83.1811,-114.677 -38,-26.1575 -85.4961,-39.3386 -142.331,-39.3386 -90.1575,0 -156.992,29.5118 -200.157,88.5039 -34.1732,47.3386 -51.3386,107.008 -51.3386,179.165 0,86 22.5039,153.512 67.3386,202.173 44.8346,48.8346 101.669,73.1654 170.331,73.1654 76.9921,0 137.827,-25.4961 182.504,-76.5039 44.4882,-50.9921 65.8268,-129.165 63.8268,-234.488l-342.992 0c0.992126,-40.6772 12,-72.3465 33.1654,-95.0079 20.9921,-22.6614 47.3228,-34 78.6614,-34 21.4961,0 39.4961,5.82677 54,17.4961 14.6614,11.6693 25.6693,30.5039 33.1654,56.5039zm8 139.008c-0.992126,39.8268 -11.1654,70.1575 -30.6614,90.8189 -19.5118,20.8346 -43.1654,31.1811 -71.1654,31.1811 -29.8425,0 -54.5039,-11.0079 -74,-32.8346 -19.5118,-21.8425 -29.0079,-51.6693 -28.6772,-89.1654l204.504 0z"
     id="path59" /></glyph>
   <glyph
   unicode="v"
   horiz-adv-x="556"
   id="glyph61"><path
     d="M214.661 0l-209.165 519.008 144 0 97.6693 -264.835 28.3307 -88.5039c7.51181,22.5039 12.3307,37.3386 14.1732,44.5039 4.66142,14.6614 9.49606,29.3228 14.8346,44l98.9921 264.835 141.008 0 -206.173 -519.008 -123.669 0z"
     id="path63" /></glyph>
   <glyph
   unicode="š"
   horiz-adv-x="556"
   id="glyph65"><path
     d="M23.0079 146l138 21.0079c5.82677,-26.5039 17.6535,-46.6772 35.6535,-60.3465 17.8425,-13.8268 43.0079,-20.6614 75.1654,-20.6614 35.5118,0 62.1732,6.50394 80.1732,19.4961 12,9.16535 18,21.5118 18,36.8346 0,10.3307 -3.33858,19.0079 -9.82677,25.8425 -6.83465,6.48819 -22.1732,12.6614 -45.8425,18.1575 -110.835,24.5039 -180.992,46.8346 -210.661,67.0079 -41.1654,28.1575 -61.6693,67.1654 -61.6693,116.992 0,45.1654 17.8268,83.0079 53.3386,113.669 35.4961,30.6614 90.4882,46 164.992,46 71.0079,0 123.843,-11.6693 158.331,-34.8346 34.5039,-23.3386 58.3465,-57.6693 71.3386,-103.165l-128.992 -24c-5.51181,20.3307 -16.1732,36 -31.6693,46.8346 -15.5118,10.8346 -37.6693,16.1732 -66.5039,16.1732 -36.3307,0 -62.3307,-5.00787 -78.1732,-15.1811 -10.4882,-7.16535 -15.6535,-16.4882 -15.6535,-27.8268 0,-9.82677 4.48819,-18.1732 13.6535,-24.9921 12.5039,-9.1811 55.3386,-22 128.677,-38.6772 73.3228,-16.6614 124.488,-36.9921 153.496,-61.1654 28.8346,-24.3307 43.1654,-58.5039 43.1654,-102.157 0,-47.5118 -19.8268,-88.5039 -59.6693,-122.677 -39.6693,-34.1575 -98.5039,-51.3386 -176.504,-51.3386 -70.6614,0 -126.661,14.3465 -168,42.8346 -41.1654,28.5039 -68.1575,67.1811 -80.8189,116.173zm80.9921 584l111.008 0 52.4882 -72.9921 56.5039 72.9921 110 0 -100.835 -144 -126.835 0 -102.331 144z"
     id="path67" /></glyph>
   <glyph
   unicode="s"
   horiz-adv-x="556"
   id="glyph69"><path
     d="M23.0079 146l138 21.0079c5.82677,-26.5039 17.6535,-46.6772 35.6535,-60.3465 17.8425,-13.8268 43.0079,-20.6614 75.1654,-20.6614 35.5118,0 62.1732,6.50394 80.1732,19.4961 12,9.16535 18,21.5118 18,36.8346 0,10.3307 -3.33858,19.0079 -9.82677,25.8425 -6.83465,6.48819 -22.1732,12.6614 -45.8425,18.1575 -110.835,24.5039 -180.992,46.8346 -210.661,67.0079 -41.1654,28.1575 -61.6693,67.1654 -61.6693,116.992 0,45.1654 17.8268,83.0079 53.3386,113.669 35.4961,30.6614 90.4882,46 164.992,46 71.0079,0 123.843,-11.6693 158.331,-34.8346 34.5039,-23.3386 58.3465,-57.6693 71.3386,-103.165l-128.992 -24c-5.51181,20.3307 -16.1732,36 -31.6693,46.8346 -15.5118,10.8346 -37.6693,16.1732 -66.5039,16.1732 -36.3307,0 -62.3307,-5.00787 -78.1732,-15.1811 -10.4882,-7.16535 -15.6535,-16.4882 -15.6535,-27.8268 0,-9.82677 4.48819,-18.1732 13.6535,-24.9921 12.5039,-9.1811 55.3386,-22 128.677,-38.6772 73.3228,-16.6614 124.488,-36.9921 153.496,-61.1654 28.8346,-24.3307 43.1654,-58.5039 43.1654,-102.157 0,-47.5118 -19.8268,-88.5039 -59.6693,-122.677 -39.6693,-34.1575 -98.5039,-51.3386 -176.504,-51.3386 -70.6614,0 -126.661,14.3465 -168,42.8346 -41.1654,28.5039 -68.1575,67.1811 -80.8189,116.173z"
     id="path71" /></glyph>
   <glyph
   unicode="N"
   horiz-adv-x="722"
   id="glyph73"><path
     d="M73.0079 0l0 716 140.331 0 294.661 -479.827 0 479.827 134 0 0 -716 -144.835 0 -290.157 470.661 0 -470.661 -134 0z"
     id="path75" /></glyph>
   <glyph
   unicode="p"
   horiz-adv-x="610"
   id="glyph77"><path
     d="M68 519.008l128 0 0 -76.1732c16.6614,26 39.0079,46.9921 67.3386,63.1654 28.3307,16 59.8268,24 94.3307,24 60.1575,0 111.339,-23.6693 153.339,-70.9921 42,-47.1811 62.9921,-113.181 62.9921,-197.512 0,-86.8346 -21.1654,-154.157 -63.4961,-202.331 -42.3307,-48.1575 -93.6693,-72.1732 -154,-72.1732 -28.6772,0 -54.6772,5.66929 -78,17.1811 -23.1654,11.3228 -47.8425,30.8346 -73.4961,58.4882l0 -259.669 -137.008 0 0 716.016zm135.008 -251.512c0,-58.4882 11.4961,-101.669 34.6614,-129.669 22.9921,-27.8268 51.1654,-41.8268 84.1575,-41.8268 31.8425,0 58.3465,12.8346 79.5118,38.5039 21.1654,25.6693 31.6693,67.6693 31.6693,126.157 0,54.6772 -10.8346,95.1654 -32.6772,121.669 -21.6693,26.5039 -48.6614,39.6693 -80.8346,39.6693 -33.4961,0 -61.3228,-12.9921 -83.3228,-38.9921 -22.1732,-26 -33.1654,-64.5039 -33.1654,-115.512z"
     id="path79" /></glyph>
   <glyph
   unicode=":"
   horiz-adv-x="333"
   id="glyph81"><path
     d="M98 382l0 137.008 137.008 0 0 -137.008 -137.008 0zm0 -382l0 137.008 137.008 0 0 -137.008 -137.008 0z"
     id="path83" /></glyph>
   <glyph
   unicode="m"
   horiz-adv-x="889"
   id="glyph85"><path
     d="M62 519.008l126 0 0 -70.8346c45.1654,54.4882 99.0079,81.8268 161.496,81.8268 33.1654,0 62,-6.83465 86.3307,-20.5039 24.5039,-13.6693 44.5039,-34.3307 60,-62 22.8346,27.6693 47.5118,48.3307 73.8425,62 26.3307,13.6693 54.5039,20.5039 84.5039,20.5039 38,0 70.1575,-7.66929 96.6614,-23.1654 26.3307,-15.4961 46,-38.1732 58.9921,-68.1732 9.51181,-22 14.1732,-57.8268 14.1732,-107.323l0 -331.339 -136.992 0 0 296.173c0,51.4961 -4.67717,84.6614 -14.1732,99.4961 -12.6614,19.4961 -32.3307,29.3386 -58.6614,29.3386 -19.1654,0 -37.3386,-5.84252 -54.3465,-17.5118 -16.8189,-11.8268 -29.1654,-28.9921 -36.6614,-51.4961 -7.49606,-22.6614 -11.1654,-58.3307 -11.1654,-107.165l0 -248.835 -136.992 0 0 284c0,50.3307 -2.50394,83.0079 -7.33858,97.4961 -4.83465,14.6772 -12.3307,25.6693 -22.6614,32.8346 -10.1732,7.16535 -24.1732,10.6772 -41.6693,10.6772 -21.1654,0 -40.1732,-5.66929 -57.0079,-17.0079 -16.9921,-11.4961 -28.9921,-27.8268 -36.3307,-49.3386 -7.33858,-21.4961 -10.9921,-57.1654 -10.9921,-106.835l0 -251.827 -137.008 0 0 519.008z"
     id="path87" /></glyph>
   <glyph
   unicode="j"
   horiz-adv-x="277"
   id="glyph89"><path
     d="M69.0079 589.008l0 126.992 136.992 0 0 -126.992 -136.992 0zm136.992 -70l0 -502.504c0,-66 -4.33071,-112.677 -12.9921,-139.843 -8.50394,-27.1654 -25.1811,-48.4882 -49.8425,-63.6693 -24.5039,-15.3228 -55.8268,-22.9921 -94,-22.9921 -13.6693,0 -28.3307,1.16535 -44.1575,3.66929 -15.8425,2.33071 -32.8346,6 -51.0079,10.9921l23.4961 116.677c6.50394,-1.16535 12.6772,-2.34646 18.5039,-3.16535 5.66929,-0.834646 11.0079,-1.1811 16,-1.1811 14,0 25.6693,3.00787 34.6614,9.00787 9.00787,6 15.0079,13.3386 17.8425,21.8268 2.99213,8.50394 4.50394,33.8425 4.50394,76.1732l0 495.008 136.992 0z"
     id="path91" /></glyph>
   <glyph
   unicode="á"
   horiz-adv-x="556"
   id="glyph93"><path
     d="M174 359.008l-124 22c14,50.6614 38.1732,88.1575 72.3307,112.488 34.1732,24.3307 85.0079,36.5039 152.331,36.5039 61.1654,0 106.835,-7.16535 136.835,-21.6693 29.8425,-14.5039 51.0079,-32.8346 63.1654,-55.1654 12.1732,-22.3307 18.3465,-63.1654 18.3465,-122.835l-2 -160c0,-45.4961 2.15748,-79.1654 6.48819,-100.835 4.33071,-21.6693 12.5039,-44.8346 24.5039,-69.4961l-136 0c-3.49606,9.00787 -8,22.3307 -13.1654,40 -2.17323,8.17323 -3.82677,13.4961 -4.83465,16 -23.3386,-22.9921 -48.3307,-40.1732 -74.9921,-51.6693 -26.6772,-11.4961 -55.0079,-17.3386 -85.1811,-17.3386 -53.1654,0 -95.1654,14.5039 -125.827,43.5118 -30.6614,28.8346 -46,65.4961 -46,109.827 0,29.1654 7.00787,55.3386 21.0079,78.3307 14,22.8346 33.4961,40.5039 58.8189,52.6772 25.1811,12.1575 61.5118,22.8346 109.008,32 64,12 108.504,23.3228 133.165,33.6693l0 13.8268c0,26.6614 -6.50394,45.6693 -19.4961,57.1654 -13.1654,11.3386 -37.8425,17.0079 -74,17.0079 -24.5039,0 -43.4961,-4.83465 -57.1654,-14.6772 -13.8425,-9.66929 -24.8346,-26.8346 -33.3386,-51.3228zm184 -111.008c-17.4961,-5.82677 -45.3386,-12.8346 -83.4961,-20.9921 -38,-8.17323 -63.0079,-16.1732 -74.6772,-23.8425 -17.8268,-12.8346 -26.8189,-28.8346 -26.8189,-48.3307 0,-19.3386 7.16535,-35.8268 21.4961,-49.8268 14.3307,-14 32.5039,-21.0079 54.6614,-21.0079 24.6614,0 48.3307,8.17323 70.8346,24.3307 16.5039,12.5039 27.4961,27.4961 32.6614,45.4961 3.51181,11.6693 5.33858,34 5.33858,66.8346l0 27.3386zm-168.992 338l68 146 152.992 0 -134.992 -146 -86 0z"
     id="path95" /></glyph>
   <glyph
   unicode="g"
   horiz-adv-x="610"
   id="glyph97"><path
     d="M59.0079 -33.0079l156.992 -18.9921c2.66142,-18.5039 8.66142,-31.1654 18,-38.1732 13.1654,-9.82677 33.6693,-14.8346 61.6693,-14.8346 35.8268,0 62.6614,5.33858 80.6614,16.1732 12,7.16535 21.1654,18.6614 27.3386,34.6614 4.15748,11.3386 6.33071,32.5039 6.33071,63.0079l0.661417 75.8268c-41.3228,-56.4882 -93.3228,-84.6614 -156,-84.6614 -69.6535,0 -124.992,29.4961 -165.654,88.3307 -32,46.5039 -48,104.504 -48,173.669 0,87.0079 20.9921,153.339 62.8189,199.165 41.8425,45.8425 94,68.8346 156.346,68.8346 64.1575,0 117.165,-28.1732 158.835,-84.5039l0 73.5118 128 0 0 -465.339c0,-61.1654 -5.00787,-107.008 -15.1811,-137.165 -10,-30.3307 -24.1575,-54 -42.4882,-71.3386 -18.1732,-17.1654 -42.5039,-30.8346 -73.0079,-40.5039 -30.5039,-9.82677 -68.9921,-14.6614 -115.496,-14.6614 -88,0 -150.331,15.1654 -187.165,45.3386 -36.8346,30.3307 -55.1654,68.4882 -55.1654,114.992 0,4.50394 0.15748,10.1732 0.503937,16.6614zm122.992 303.008c0,-54.9921 10.6614,-95.1654 31.8268,-120.661 21.3386,-25.5118 47.6693,-38.3307 78.8346,-38.3307 33.3386,0 61.6693,13.1654 84.6772,39.3228 23.1654,26.1732 34.6614,64.8346 34.6614,116.173 0,53.6693 -10.9921,93.4961 -33.1654,119.496 -22,26 -50,39.0079 -83.8268,39.0079 -32.8346,0 -59.8425,-12.8346 -81.1811,-38.3465 -21.1654,-25.4961 -31.8268,-64.3307 -31.8268,-116.661z"
     id="path99" /></glyph>
   <glyph
   unicode="u"
   horiz-adv-x="610"
   id="glyph101"><path
     d="M415.008 0l0 77.6693c-19.0079,-27.6693 -43.8425,-49.6693 -74.6772,-66.1732 -30.8346,-16.3307 -63.3228,-24.5039 -97.4961,-24.5039 -35.0079,0 -66.3307,7.66929 -94,23.0079 -27.8268,15.3386 -47.8268,37.0079 -60.1732,64.6614 -12.4882,27.8425 -18.6614,66.1732 -18.6614,115.165l0 329.181 137.008 0 0 -239.008c0,-73.1654 2.48819,-117.827 7.65354,-134.331 5.00787,-16.5039 14.1732,-29.6693 27.6693,-39.1654 13.3386,-9.66929 30.3307,-14.5039 51.0079,-14.5039 23.4961,0 44.4882,6.50394 63.1654,19.3386 18.6614,12.8346 31.3228,28.8346 38.1575,48 6.83465,19.1654 10.3465,65.8268 10.3465,140.331l0 219.339 136.992 0 0 -519.008 -126.992 0z"
     id="path103" /></glyph>
   <glyph
   unicode=" "
   horiz-adv-x="277"
   id="glyph105" />
   <glyph
   unicode="d"
   horiz-adv-x="610"
   id="glyph107"><path
     d="M548 0l-126.992 0 0 76.1732c-21.1811,-29.6693 -46.3465,-51.8425 -75.1811,-66.8346 -28.8189,-14.8346 -58,-22.3465 -87.3228,-22.3465 -59.8425,0 -111.008,24.0157 -153.669,72.1732 -42.5039,48.1732 -63.8268,115.165 -63.8268,201.339 0,88 20.6614,154.992 62.1575,200.835 41.4961,45.8268 93.8425,68.6614 157.165,68.6614 58,0 108.331,-24.1732 150.677,-72.3307l0 258.331 136.992 0 0 -716zm-366 269.496c0,-55.4961 7.66929,-95.6693 22.8346,-120.488 22.1732,-36 52.9921,-54 92.6614,-54 31.5118,0 58.3307,13.4961 80.3307,40.4882 22.1732,27.0079 33.1811,67.1654 33.1811,120.835 0,59.8425 -10.6772,102.835 -32.1732,129.165 -21.4961,26.3307 -48.8346,39.5118 -82.3307,39.5118 -32.5039,0 -59.6693,-13.0079 -81.6693,-39.0079 -21.8268,-26 -32.8346,-64.8346 -32.8346,-116.504z"
     id="path109" /></glyph>
   <glyph
   unicode="é"
   horiz-adv-x="556"
   id="glyph111"><path
     d="M372 164l137.008 -22.9921c-17.5118,-50.1732 -45.3386,-88.3465 -83.1811,-114.677 -38,-26.1575 -85.4961,-39.3386 -142.331,-39.3386 -90.1575,0 -156.992,29.5118 -200.157,88.5039 -34.1732,47.3386 -51.3386,107.008 -51.3386,179.165 0,86 22.5039,153.512 67.3386,202.173 44.8346,48.8346 101.669,73.1654 170.331,73.1654 76.9921,0 137.827,-25.4961 182.504,-76.5039 44.4882,-50.9921 65.8268,-129.165 63.8268,-234.488l-342.992 0c0.992126,-40.6772 12,-72.3465 33.1654,-95.0079 20.9921,-22.6614 47.3228,-34 78.6614,-34 21.4961,0 39.4961,5.82677 54,17.4961 14.6614,11.6693 25.6693,30.5039 33.1654,56.5039zm8 139.008c-0.992126,39.8268 -11.1654,70.1575 -30.6614,90.8189 -19.5118,20.8346 -43.1654,31.1811 -71.1654,31.1811 -29.8425,0 -54.5039,-11.0079 -74,-32.8346 -19.5118,-21.8425 -29.0079,-51.6693 -28.6772,-89.1654l204.504 0zm-176.992 282.992l68 146 152.992 0 -134.992 -146 -86 0z"
     id="path113" /></glyph>
   <glyph
   unicode="a"
   horiz-adv-x="556"
   id="glyph115"><path
     d="M174 359.008l-124 22c14,50.6614 38.1732,88.1575 72.3307,112.488 34.1732,24.3307 85.0079,36.5039 152.331,36.5039 61.1654,0 106.835,-7.16535 136.835,-21.6693 29.8425,-14.5039 51.0079,-32.8346 63.1654,-55.1654 12.1732,-22.3307 18.3465,-63.1654 18.3465,-122.835l-2 -160c0,-45.4961 2.15748,-79.1654 6.48819,-100.835 4.33071,-21.6693 12.5039,-44.8346 24.5039,-69.4961l-136 0c-3.49606,9.00787 -8,22.3307 -13.1654,40 -2.17323,8.17323 -3.82677,13.4961 -4.83465,16 -23.3386,-22.9921 -48.3307,-40.1732 -74.9921,-51.6693 -26.6772,-11.4961 -55.0079,-17.3386 -85.1811,-17.3386 -53.1654,0 -95.1654,14.5039 -125.827,43.5118 -30.6614,28.8346 -46,65.4961 -46,109.827 0,29.1654 7.00787,55.3386 21.0079,78.3307 14,22.8346 33.4961,40.5039 58.8189,52.6772 25.1811,12.1575 61.5118,22.8346 109.008,32 64,12 108.504,23.3228 133.165,33.6693l0 13.8268c0,26.6614 -6.50394,45.6693 -19.4961,57.1654 -13.1654,11.3386 -37.8425,17.0079 -74,17.0079 -24.5039,0 -43.4961,-4.83465 -57.1654,-14.6772 -13.8425,-9.66929 -24.8346,-26.8346 -33.3386,-51.3228zm184 -111.008c-17.4961,-5.82677 -45.3386,-12.8346 -83.4961,-20.9921 -38,-8.17323 -63.0079,-16.1732 -74.6772,-23.8425 -17.8268,-12.8346 -26.8189,-28.8346 -26.8189,-48.3307 0,-19.3386 7.16535,-35.8268 21.4961,-49.8268 14.3307,-14 32.5039,-21.0079 54.6614,-21.0079 24.6614,0 48.3307,8.17323 70.8346,24.3307 16.5039,12.5039 27.4961,27.4961 32.6614,45.4961 3.51181,11.6693 5.33858,34 5.33858,66.8346l0 27.3386z"
     id="path117" /></glyph>
   <glyph
   unicode="r"
   horiz-adv-x="389"
   id="glyph119"><path
     d="M203.008 0l-137.008 0 0 519.008 127.008 0 0 -73.6693c21.8268,34.8346 41.4961,57.6693 58.9921,68.4882 17.4961,10.8346 37.3386,16.1732 59.4961,16.1732 31.3386,0 61.5118,-8.66142 90.5039,-25.8268l-42.5039 -119.669c-23.1654,14.9921 -44.6614,22.5039 -64.4882,22.5039 -19.3386,0 -35.6693,-5.33858 -49.0079,-15.8425 -13.3386,-10.6614 -23.8268,-29.6693 -31.4961,-57.3386 -7.66929,-27.6535 -11.4961,-85.6535 -11.4961,-173.827l0 -160z"
     id="path121" /></glyph>
   <glyph
   unicode="P"
   horiz-adv-x="667"
   id="glyph123"><path
     d="M73.0079 0l0 716 231.827 0c87.8268,0 144.992,-3.49606 171.669,-10.6614 40.9921,-10.8346 75.3228,-34.1732 102.992,-70.1732 27.6693,-36 41.5118,-82.5039 41.5118,-139.496 0,-44 -8,-80.8346 -23.8425,-110.835 -16,-30 -36.1575,-53.4961 -60.6614,-70.6614 -24.5039,-17.0079 -49.4961,-28.3465 -74.8346,-33.8425 -34.5039,-6.83465 -84.3307,-10.3307 -149.669,-10.3307l-94 0 0 -270 -144.992 0zm144.992 595.008l0 -204 78.8346 0c56.8346,0 94.6614,3.82677 113.827,11.3228 19.1654,7.49606 34.1732,19.1654 45.0079,35.3386 10.8346,16 16.3307,34.5039 16.3307,55.8268 0,26.1732 -7.66929,47.6693 -22.8346,64.6772 -15.3386,16.9921 -34.5039,27.6535 -58,32 -17.1654,3.16535 -51.6693,4.83465 -103.669,4.83465l-69.4961 0z"
     id="path125" /></glyph>
   <glyph
   unicode="M"
   horiz-adv-x="833"
   id="glyph127"><path
     d="M71.0079 0l0 716 217.165 0 128.331 -488.331 126.835 488.331 217.669 0 0 -716 -134 0 -0.503937 563.669 -141.165 -563.669 -139.339 0 -140.504 563.669 -0.488189 -563.669 -134 0z"
     id="path129" /></glyph>
   <glyph
   unicode="o"
   horiz-adv-x="610"
   id="glyph131"><path
     d="M40 265.827c0,45.6693 11.1654,89.8425 33.6693,132.504 22.5039,42.8346 54.3307,75.3386 95.4961,97.8425 41.1654,22.4882 87.0079,33.8268 137.843,33.8268 78.4882,0 142.661,-25.4961 192.819,-76.5039 50.1732,-51.1654 75.1811,-115.496 75.1811,-193.496 0,-78.6614 -25.3386,-143.827 -75.8425,-195.496 -50.6614,-51.6693 -114.331,-77.5118 -191.165,-77.5118 -47.4961,0 -92.8346,10.8346 -136,32.3465 -42.9921,21.4961 -75.8268,52.9921 -98.3307,94.6614 -22.5039,41.4961 -33.6693,92.1732 -33.6693,151.827zm141.008 -7.32283c0,-51.4961 12.1575,-91.0079 36.4882,-118.331 24.5039,-27.5118 54.5039,-41.1654 90.3307,-41.1654 35.6693,0 65.6693,13.6535 89.8425,41.1654 24.1575,27.3228 36.3307,67.1654 36.3307,119.323 0,50.8346 -12.1732,90 -36.3307,117.339 -24.1732,27.4961 -54.1732,41.1654 -89.8425,41.1654 -35.8268,0 -65.8268,-13.6693 -90.3307,-41.1654 -24.3307,-27.3386 -36.4882,-66.8346 -36.4882,-118.331z"
     id="path133" /></glyph>
   <glyph
   unicode="l"
   horiz-adv-x="277"
   id="glyph135"><path
     d="M72 0l0 716 137.008 0 0 -716 -137.008 0z"
     id="path137" /></glyph>
   <glyph
   unicode="i"
   horiz-adv-x="277"
   id="glyph139"><path
     d="M72 589.008l0 126.992 137.008 0 0 -126.992 -137.008 0zm0 -589.008l0 519.008 137.008 0 0 -519.008 -137.008 0z"
     id="path141" /></glyph>
  </font>
</defs>
</svg>
